#TITLE:Yuukyou Seishunka;
#SUBTITLE:- Code Geass 1st Ending;
#ARTIST:ALI PROJECT;
#TITLETRANSLIT:;
#SUBTITLETRANSLIT:;
#ARTISTTRANSLIT:;
#CREDIT:koa5001;
#BANNER:Yuukyou Seishunka banner.png;
#BACKGROUND:Yuukyou Seishunka-bg.png;
#LYRICSPATH:Yuukyou Seishunka.lrc;
#CDTITLE:KOA_cdtitle.png;
#MUSIC:CODE GEASS - Yuukyou Seishunka [TV Ver.].mp3;
#OFFSET:-0.280;
#SAMPLESTART:4.508;
#SAMPLELENGTH:15.280;
#SELECTABLE:YES;
#BPMS:0.000=125.990;
#STOPS:;
#BGCHANGES:0.000=Yuukyou Seishunka.avi=1.000=0=0=1,
187.000=Yuukyou Seishunka-bg.png=1.000=1=0=0,
99999=-nosongbg-=1.000=0=0=0 // don't automatically add -songbackground-
;
// cache tags:
#FIRSTBEAT:0.000;
#LASTBEAT:187.000;
#SONGFILENAME:songs/Otaku's Dream 3rd Anime Mix/[koa5001] Yuukyou Seishunka - Code Geass 1st ED/Yuukyou Seishunka.sm;
#HASMUSIC:1;
#HASBANNER:1;
#MUSICLENGTH:90.096;
// end cache tags

//---------------dance-single - ----------------
#NOTES:
     dance-single:
     :
     Hard:
     7:
     0.511,0.467,0.011,0.133,0.000,309.000,1.000,12.000,0.000,0.000:
1000
0010
1000
0100
1000
0010
1000
0000
,
0001
0010
0001
0100
0001
0010
0001
0000
,
1000
0100
0001
0100
1000
0001
1000
0000
,
0001
0100
1000
0100
0001
1000
0001
0000
,
0010
0000
0100
0000
0010
0001
1000
0000
,
0001
0010
0100
1000
0002
0000
1003
0000
,
0001
0010
1000
0010
0001
1000
0001
0000
,
1000
0010
0001
0010
1000
0001
1000
0000
,
0100
0000
0010
0000
0100
1000
0001
0000
,
1000
0010
0100
0001
0010
0100
0010
0000
,
0001
0000
0100
0010
0100
0001
1000
0000
,
0001
0000
1000
0100
0010
0100
1000
0001
,
1000
0010
0100
0001
0100
0010
1000
0100
,
0010
0001
0010
0100
1000
0001
1000
0000
,
0001
0000
0001
0000
1000
0100
0001
0100
,
1000
0000
1000
0000
0001
0100
1000
0100
,
0001
0010
0100
1000
0020
0000
0130
0000
,
0010
1000
0100
0010
0002
0000
1003
0000
,
0001
0000
0001
0000
1000
0010
0001
0010
,
1000
0000
1000
0000
0001
0010
1000
0010
,
0001
0100
0010
0100
0002
0000
1003
0000
,
0001
0010
0100
0010
0002
0000
1003
0000
,
0001
0010
0001
0010
0001
0100
0001
0010
,
0100
1000
0100
1000
0010
1000
0100
0000
,
1000
0010
1000
0010
1000
0100
1000
0010
,
0100
0001
0100
0001
0010
0100
0010
0000
,
0001
1000
0001
1000
0001
0010
0100
0010
,
0001
0100
0010
1000
0100
0010
0100
0000
,
1000
0010
0100
0001
0001
0100
0010
1000
,
0100
0010
0100
1000
0010
0100
0001
0010
,
0001
0100
1000
0100
0001
1000
0001
0000
,
1000
0100
0001
0100
1000
0001
1000
0000
,
0010
0000
0100
0000
0010
1000
0001
0000
,
1000
0100
0010
0001
2000
0000
3001
0000
,
1000
0010
0001
0010
1000
0001
1000
0000
,
0001
0010
1000
0010
0001
1000
0001
0000
,
0100
0000
0010
0000
0100
0001
1000
0000
,
0001
0100
0010
1000
0100
0010
0100
0000
,
1000
0000
0010
0100
0010
1000
0001
0000
,
1000
0000
0001
0010
0100
0010
0001
1000
,
0001
0000
1000
0100
0010
0001
0010
0100
,
1000
0010
0000
0200
0000
0310
0020
0000
,
1030
0100
1000
0010
0100
0001
0010
0001
,
0200
0000
0310
1000
0002
0000
0013
0100
,
0010
0001
0100
0001
0010
0100
1000
0010
,
1000
0100
0010
0001
0100
0010
1000
0001
,
2002
0000
0000
3003
;

//---------------dance-single - ----------------
#NOTES:
     dance-single:
     :
     Challenge:
     9:
     0.660,0.649,0.178,0.089,0.488,392.000,16.000,8.000,0.000,0.000:
1000
0100
1000
0000
0010
0100
0010
0000
1000
0001
1000
0000
0001
0010
0001
0000
,
0100
0000
0000
0010
0000
0000
0100
0000
0000
0000
0000
0000
0001
0000
0000
1000
0000
0000
0001
0000
0000
0000
0000
0000
1000
0000
0000
0000
0100
0000
0000
0000
1000
0000
0000
0000
0010
0000
0000
0000
0100
0000
0000
0000
0001
0000
0000
0000
,
0010
0100
0010
0000
0001
0000
1000
0000
0001
0100
0001
0000
0101
0000
0000
0000
,
0001
0010
0001
0000
0010
0000
0100
0000
1000
0010
1000
0000
1010
0000
0000
0000
,
1000
0000
0000
0000
0100
0000
0000
0000
0010
0000
0000
0000
0001
0000
0000
0000
0000
0000
0100
0000
0000
0000
0000
0000
0010
0000
0000
1000
0000
0000
0002
0000
0000
0000
0000
0000
0000
0000
0000
0000
0000
0000
0000
0000
1003
0000
0000
0000
,
0001
0000
0010
0000
0100
0000
1000
0000
0000
0010
0000
0000
0200
0000
0000
0000
0000
0000
0310
0000
0000
0000
0000
0000
,
1000
0001
1000
0000
0010
0000
0100
0000
0001
0010
0001
0000
0011
0000
0000
0000
,
0001
0100
0001
0000
0100
0000
0010
0000
1000
0100
1000
0000
1100
0000
0000
0000
,
1000
0000
0000
0000
0010
0000
0000
0000
0100
0000
0000
0000
0001
0000
0000
0000
0000
0000
0010
0000
0000
0000
0000
0000
0001
0000
0000
1000
0000
0000
0001
0000
0000
0000
0000
0000
0000
0000
0000
0000
0000
0000
0010
0000
0000
0000
0000
0000
,
0100
0000
1000
0010
1000
0100
0000
0010
0001
0000
1000
0000
1001
0000
0000
0000
,
0001
0000
0000
0100
1000
0000
0100
0000
0001
0010
0001
0010
0001
0000
0000
0000
,
1000
0000
0000
0100
0001
0000
0100
0000
1000
0000
0010
0000
0100
0000
0001
0000
,
0010
0100
0010
0001
0100
0010
1000
0100
,
0010
0000
0001
0000
0010
0000
0100
0000
1000
0001
1000
0000
1001
0000
0000
0000
,
0001
0000
0100
0000
0101
0000
0000
0001
0010
0000
0100
0000
1000
0000
0010
0000
,
1000
0000
0100
0000
1100
0000
0000
1000
0010
0000
0100
0000
0001
0000
0010
0000
,
0001
0000
0100
0000
0010
0000
0000
0100
0001
0000
0010
0000
0100
0000
1000
0000
,
0010
0000
0100
0000
0010
0000
0000
1000
0000
0001
1000
0000
0010
0000
0100
0000
,
0001
0000
0010
0000
0011
0000
0000
0001
0100
0000
0010
0000
1000
0000
0100
0000
,
1000
0000
0010
0000
1010
0000
0000
1000
0100
0000
0010
0000
0001
0000
0100
0000
,
0001
0000
0000
0010
0000
0000
1000
0000
0000
0010
0000
0000
0001
0000
0000
0100
0000
0000
0010
0000
1000
0000
0100
0000
,
1000
0000
0010
0000
0100
0000
0000
0001
0000
1000
0001
0000
0010
0000
0100
0000
,
1000
0000
0010
0000
0010
0000
0000
1000
0000
0000
0100
0000
0010
0000
0001
0000
,
0100
0000
0010
0000
0010
0000
0000
0100
0000
0000
0001
0000
0010
0000
0100
0000
,
1000
0000
0010
0000
0010
0000
0000
0001
0000
0000
0010
0000
1000
0000
0001
0000
,
1000
0000
0100
0000
0100
0000
0000
0001
0000
0000
0100
0000
1000
0000
0001
0000
,
0100
0000
0010
0000
0010
0000
0000
0100
0000
0000
0001
0000
1000
0000
0100
0000
,
0010
0000
0100
0000
0100
0000
0000
0010
0000
0000
0001
0000
1000
0000
0001
0000
,
1000
0010
1000
0000
0100
0010
0100
0000
1000
0001
1000
0000
0001
0100
0001
0000
,
0010
0000
0000
0100
0000
0000
0010
0000
0000
0000
0000
0000
0001
0000
0000
1000
0000
0000
0001
0000
0000
0000
0000
0000
1000
0000
0000
0000
0010
0000
0000
0000
0100
0000
0000
0000
0001
0000
0000
0000
0100
0000
0000
0000
0010
0000
0000
0000
,
1000
0100
1000
0000
0010
0000
0100
0000
0001
0010
0001
0000
0011
0000
0000
0000
,
0001
0100
0001
0000
0010
0000
0100
0000
1000
0010
1000
0000
1010
0000
0000
0000
,
1000
0000
0000
0000
0100
0000
0000
0000
0001
0000
0000
0000
0100
0000
0000
0000
0000
0000
1000
0000
0000
0000
0000
0000
0010
0000
0000
0100
0000
0000
0020
0000
0000
0000
0000
0000
0000
0000
0000
0000
0000
0000
0000
0000
1030
0000
0000
0000
,
0001
0000
0100
0000
1000
0000
0100
0000
0000
0001
0000
0000
0020
0000
0000
0000
0000
0000
0130
0000
0000
0000
0000
0000
,
1000
0010
1000
0000
0100
0000
0010
0000
0001
0100
0001
0000
0101
0000
0000
0000
,
0001
0010
0001
0000
0100
0000
0010
0000
1000
0100
1000
0000
1100
0000
0000
0000
,
1000
0000
0000
0000
0010
0000
0000
0000
0100
0000
0000
0000
0001
0000
0000
0000
0000
0000
0010
0000
0000
0000
0000
0000
0001
0000
0000
0100
0000
0000
0001
0000
0000
0000
0000
0000
0000
0000
0000
0000
0000
0000
0010
0000
0000
0000
0000
0000
,
0100
0000
0010
0001
1000
0010
0000
1000
0001
0000
1000
0000
1001
0000
0000
0000
,
1000
0000
0000
0100
0001
0000
0100
0000
1000
0010
1000
0010
1000
0000
0000
0000
,
0001
0000
0000
0100
1000
0000
0100
0000
0001
0000
0010
0000
0100
0000
1000
0000
,
0010
0000
0000
0100
0010
0000
1000
0000
0100
0000
0010
0000
0100
0000
1000
0000
,
0001
0000
0002
0000
0000
0000
1003
0000
0000
0000
0010
0100
0020
0000
0000
0000
,
1030
0100
0010
0001
0100
0010
1000
0001
,
1000
0100
0100
1000
0010
0100
0100
0001
,
0010
0100
0010
0001
0100
0010
1000
0100
,
1000
0010
0100
0001
0010
0100
1000
0001
,
2002
0000
0000
3003
;

//---------------dance-single - ----------------
#NOTES:
     dance-single:
     :
     Medium:
     5:
     0.365,0.441,0.078,0.277,0.000,198.000,7.000,25.000,0.000,0.000:
1000
0100
0010
0001
,
0010
0100
1000
0001
,
0100
0000
0010
0000
0100
0001
1000
0000
,
0100
0000
0010
0000
0100
1000
0001
0000
,
1000
0100
0020
0030
,
0100
1000
0002
1003
,
0010
0000
0100
0000
0010
1000
0001
0000
,
0010
0000
0100
0000
0010
0001
1000
0000
,
0001
0010
0200
0300
,
0010
0000
0001
0000
1000
0010
1010
0000
,
1000
0000
0010
0000
0100
0001
0101
0000
,
0001
0010
0100
1000
,
0010
0100
0010
1000
,
0100
0010
0001
0100
,
0010
0010
0020
0030
,
0100
0100
0200
0300
,
0001
0010
0001
0011
,
0100
1000
0100
1100
,
1000
1000
2000
3000
,
0001
0001
0002
0003
,
1000
0100
0010
0001
,
0100
0010
1000
0001
,
2000
0000
3010
0100
0002
0000
0013
0100
,
2000
0000
3100
0010
0002
0000
0103
0010
,
0200
0000
0301
0010
0200
0000
0310
0001
,
2000
0000
3010
1000
0200
0000
0301
0100
,
2000
0000
3001
0100
0020
0000
0130
0001
,
0020
0000
0130
1000
0002
0000
0103
0010
,
1000
0100
1000
0010
,
0100
0001
0010
0001
,
0100
0000
0010
0000
0100
0001
1000
0000
,
0100
0000
0010
0000
0100
1000
0001
0000
,
1000
0010
0200
0300
,
0010
1000
0002
1003
,
0010
0000
0100
0000
0010
1000
0001
0000
,
0010
0000
0100
0000
0010
0001
1000
0000
,
0010
0100
0002
0003
,
0100
0000
0010
0000
1000
0100
1100
0000
,
1000
0000
0100
0000
0010
0001
0011
0000
,
0001
0100
0010
1000
,
0001
0010
0100
1000
,
0020
0000
0000
0030
,
1000
0100
0010
0001
,
0100
0010
0100
0001
,
0010
0001
0100
0010
,
1000
0100
1000
0001
,
2002
0000
0000
3003
;

//---------------dance-single - ----------------
#NOTES:
     dance-single:
     :
     Easy:
     3:
     0.225,0.337,0.055,0.189,0.000,120.000,5.000,17.000,0.000,0.000:
0001
0000
1000
0000
,
0001
0000
1000
0000
,
0010
0000
0010
0000
,
0100
0000
0100
0000
,
0001
0000
0001
0000
,
1000
0000
1000
0000
,
0001
0000
0010
0000
,
0100
0000
1000
0000
,
0100
0000
0010
0000
,
0001
0000
1000
0000
,
0002
0000
1000
1003
,
2000
0000
0001
3001
,
1000
0010
0100
0001
,
1000
0100
0010
0001
,
0100
0010
0220
0330
,
0010
0100
0220
0330
,
0010
1000
0100
1000
,
0010
0100
0001
0010
,
0001
1000
2002
3003
,
1000
0001
2002
3003
,
1000
0100
0010
0001
,
0100
0010
1000
0001
,
1000
0000
1000
0000
,
0001
0000
0001
0000
,
0010
0000
0010
0000
,
0100
0000
0100
0000
,
1000
0000
0001
0000
,
0100
0000
0010
0000
,
1000
0000
0100
0000
,
0010
0000
0001
0000
,
0100
0000
0100
0000
,
0010
0000
0010
0000
,
1000
0000
1000
0000
,
0001
0000
0001
0000
,
1000
0000
0010
0000
,
0100
0000
0001
0000
,
0010
0000
0100
0000
,
1000
0000
0001
0000
,
2000
0000
0001
3001
,
0002
0000
1000
1003
,
0001
0100
0010
1000
,
0200
0000
0000
0300
,
1000
0010
0100
0001
,
0020
0030
0200
0300
,
0010
0001
1000
0010
,
0100
0010
1000
0001
,
2002
0000
0000
3003
;
